<?xml version="1.0" standalone="no"?>
<!DOCTYPE svg PUBLIC "-//W3C//DTD SVG 1.1//EN" "http://www.w3.org/Graphics/SVG/1.1/DTD/svg11.dtd" >
<svg xmlns="http://www.w3.org/2000/svg">
<metadata>
Created by FontForge 20120731 at Wed Mar 23 09:50:19 2016
 By Ads
</metadata>
<defs>
<font id="iconfont" horiz-adv-x="1024" >
  <font-face 
    font-family="iconfont"
    font-weight="500"
    font-stretch="normal"
    units-per-em="1024"
    panose-1="2 0 6 3 0 0 0 0 0 0"
    ascent="896"
    descent="-128"
    x-height="792"
    bbox="0 -171 1024 896"
    underline-thickness="50"
    underline-position="-100"
    unicode-range="U+0078-E62C"
  />
<missing-glyph horiz-adv-x="374" 
d="M34 0v682h272v-682h-272zM68 34h204v614h-204v-614z" />
    <glyph glyph-name=".notdef" horiz-adv-x="374" 
d="M34 0v682h272v-682h-272zM68 34h204v614h-204v-614z" />
    <glyph glyph-name=".null" horiz-adv-x="0" 
 />
    <glyph glyph-name="nonmarkingreturn" horiz-adv-x="341" 
 />
    <glyph glyph-name="x" unicode="x" horiz-adv-x="1001" 
d="M281 543q-27 -1 -53 -1h-83q-18 0 -36.5 -6t-32.5 -18.5t-23 -32t-9 -45.5v-76h912v41q0 16 -0.5 30t-0.5 18q0 13 -5 29t-17 29.5t-31.5 22.5t-49.5 9h-133v-97h-438v97zM955 310v-52q0 -23 0.5 -52t0.5 -58t-10.5 -47.5t-26 -30t-33 -16t-31.5 -4.5q-14 -1 -29.5 -0.5
t-29.5 0.5h-32l-45 128h-439l-44 -128h-29h-34q-20 0 -45 1q-25 0 -41 9.5t-25.5 23t-13.5 29.5t-4 30v167h911zM163 247q-12 0 -21 -8.5t-9 -21.5t9 -21.5t21 -8.5q13 0 22 8.5t9 21.5t-9 21.5t-22 8.5zM316 123q-8 -26 -14 -48q-5 -19 -10.5 -37t-7.5 -25t-3 -15t1 -14.5
t9.5 -10.5t21.5 -4h37h67h81h80h64h36q23 0 34 12t2 38q-5 13 -9.5 30.5t-9.5 34.5q-5 19 -11 39h-368zM336 498v228q0 11 2.5 23t10 21.5t20.5 15.5t34 6h188q31 0 51.5 -14.5t20.5 -52.5v-227h-327z" />
    <glyph glyph-name="uniE600" unicode="&#xe600;" 
d="M512 830q-91 0 -173.5 -35.5t-142 -95t-95 -142t-35.5 -173.5t35.5 -173.5t95 -142t142 -95t173.5 -35.5t173.5 35.5t142 95t95 142t35.5 173.5t-35.5 173.5t-95 142t-142 95t-173.5 35.5zM512 224q-66 0 -113 47t-47 113q0 43 21.5 80t58.5 58.5t80 21.5q66 0 113 -47
t47 -113t-47 -113t-113 -47z" />
    <glyph glyph-name="uniE601" unicode="&#xe601;" 
d="M512 830q-91 0 -173.5 -35.5t-142 -95t-95 -142t-35.5 -173.5t35.5 -173.5t95 -142t142 -95t173.5 -35.5t173.5 35.5t142 95t95 142t35.5 173.5t-35.5 173.5t-95 142t-142 95t-173.5 35.5zM512 2q-104 0 -192 51t-139 139t-51 192t51 192t139 139t192 51t192 -51
t139 -139t51 -192q0 -151 -103 -261q-102 -108 -249 -120q-15 -1 -30 -1zM512 544q-66 0 -113 -47t-47 -113t47 -113t113 -47t113 47t47 113t-47 113t-113 47z" />
    <glyph glyph-name="uniE602" unicode="&#xe602;" 
d="M832 -32h-640q-40 0 -68 28t-28 68v640q0 40 28 68t68 28h640q19 0 37 -7.5t31 -20.5t20.5 -31t7.5 -37v-640q0 -40 -28 -68t-68 -28zM192 736q-13 0 -22.5 -9.5t-9.5 -22.5v-640q0 -9 4.5 -16t11.5 -11.5t16 -4.5h640q9 0 16 4.5t11.5 11.5t4.5 16v640q0 13 -9.5 22.5
t-22.5 9.5h-640z" />
    <glyph glyph-name="uniE603" unicode="&#xe603;" 
d="M832 800h-640q-26 0 -48 -13t-35 -35t-13 -48v-640q0 -40 28 -68t68 -28h640q40 0 68 28t28 68v640q0 40 -28 68t-68 28zM727 458l-256 -259v-1q-2 -1 -7 -4q-1 -1 -2 -1l-2 -2q-6 -2 -12 -2q-3 0 -6 0.5t-6 1.5l-2 2q-1 0 -1.5 0.5t-1.5 0.5q-4 3 -5 4v1h-1l-126 129
q-9 10 -9 23t10 23q5 4 11 6.5t12 2.5t12 -2.5t10 -7.5l103 -106l234 236q9 9 22.5 9t22.5 -9q6 -6 8.5 -14.5t0 -16.5t-8.5 -14z" />
    <glyph glyph-name="uniE604" unicode="&#xe604;" 
d="M727 503q-6 6 -14.5 8t-16.5 0t-14 -8l-234 -236l-103 106q-9 9 -22.5 9.5t-23 -9t-9.5 -22.5t9 -23l126 -129h1v-1q1 -1 5 -4q1 0 1.5 -0.5t1.5 -0.5l2 -2q6 -2 12 -2q3 0 6 0.5t6 1.5q1 1 2 1.5t2 1.5q5 3 7 4v1l256 259q6 6 8.5 14t0 16.5t-8.5 14.5zM832 -32h-640
q-40 0 -68 28t-28 68v640q0 40 28 68t68 28h640q19 0 37 -7.5t31 -20.5t20.5 -31t7.5 -37v-640q0 -40 -28 -68t-68 -28zM192 736q-13 0 -22.5 -9.5t-9.5 -22.5v-640q0 -9 4.5 -16t11.5 -11.5t16 -4.5h640q9 0 16 4.5t11.5 11.5t4.5 16v640q0 13 -9.5 22.5t-22.5 9.5h-640z
" />
    <glyph glyph-name="uniE605" unicode="&#xe605;" 
d="M512 -64q-185 0 -316.5 131.5t-131.5 316.5t131.5 316.5t316.5 131.5t316.5 -131.5t131.5 -316.5t-131.5 -316.5t-316.5 -131.5zM512 768q-159 0 -271.5 -112.5t-112.5 -271.5t112.5 -271.5t271.5 -112.5t271.5 112.5t112.5 271.5t-112.5 271.5t-271.5 112.5z" />
    <glyph glyph-name="uniE606" unicode="&#xe606;" 
d="M512 830q-91 0 -173.5 -35.5t-142 -95t-95 -142t-35.5 -173.5t35.5 -173.5t95 -142t142 -95t173.5 -35.5t173.5 35.5t142 95t95 142t35.5 173.5t-35.5 173.5t-95 142t-142 95t-173.5 35.5zM727 458l-256 -259v-1q-2 -1 -7 -4q-1 -1 -2 -1l-2 -2q-6 -2 -12 -2q-3 0 -6 0.5
t-6 1.5l-2 2q-1 0 -1.5 0.5t-1.5 0.5q-4 3 -5 4v1h-1l-126 129q-9 10 -9 23t10 23q5 4 11 6.5t12 2.5t12 -2.5t10 -7.5l103 -106l234 236q9 9 22.5 9t22.5 -9t9.5 -22.5t-9.5 -22.5z" />
    <glyph glyph-name="uniE607" unicode="&#xe607;" 
d="M512 -64q-185 0 -316.5 131.5t-131.5 316.5t131.5 316.5t316.5 131.5t316.5 -131.5t131.5 -316.5t-131.5 -316.5t-316.5 -131.5zM512 768q-104 0 -192.5 -51.5t-140 -140t-51.5 -192.5t51.5 -192.5t140 -140t192.5 -51.5q62 0 120.5 19.5t106 55t83 83t55 106t19.5 120.5
q0 104 -51.5 192.5t-140 140t-192.5 51.5zM727 503q-6 6 -14.5 8t-16.5 0t-14 -8l-234 -236l-103 106q-9 9 -22.5 9.5t-23 -9t-9.5 -22.5t9 -23l126 -129h1v-1q1 -1 5 -4q1 0 1.5 -0.5t1.5 -1t2 -1.5q6 -2 12 -2h4q1 0 2 1h4q1 1 2 1q1 1 2 1.5t2 1.5q5 3 7 4v1l256 259
q6 6 8.5 14t0 16.5t-8.5 14.5z" />
    <glyph glyph-name="uniE608" unicode="&#xe608;" 
d="M769 192q-54 0 -91 -38l-310 172q8 13 11.5 28t3.5 30q0 16 -6 36l305 189q37 -33 85 -33q53 0 90.5 37.5t37.5 90.5t-37.5 90.5t-90.5 37.5t-90.5 -37.5t-37.5 -90.5q0 -7 1 -14.5t2.5 -14t4.5 -12.5l-302 -188q-38 37 -90 37q-53 0 -90.5 -37.5t-37.5 -90.5t37.5 -90.5
t90.5 -37.5q38 0 69 21l322 -178q-6 -19 -6 -34q0 -53 37.5 -90.5t90.5 -37.5t90.5 37.5t37.5 90.5t-37 90t-90 37zM767.5 768q26.5 0 45 -19t18.5 -45t-18.5 -45t-45 -19t-45.5 19t-19 45t19 45t45.5 19zM191 384.5q0 26.5 19 45t45.5 18.5t45 -18.5t18.5 -45.5
q0 -17 -8.5 -32t-23.5 -23.5t-32 -8.5q-26 0 -45 19t-19 45.5zM769 0q-27 0 -45.5 19t-18.5 45.5t18.5 45t45 18.5t45.5 -18.5t19 -45.5q0 -39 -35 -57q-14 -6 -29 -7z" />
    <glyph glyph-name="uniE609" unicode="&#xe609;" 
d="M928 352h-832q-13 0 -22.5 9.5t-9.5 22.5q0 3 0.5 6.5t2 6t3 5.5t3.5 5t5 3.5t5.5 3t6 2t6.5 0.5h832q13 0 22.5 -9.5t9.5 -22.5t-9.5 -22.5t-22.5 -9.5zM832 -32h-192q-13 0 -22.5 9.5t-9.5 22.5q0 7 2.5 12.5t7 10t10 7t12.5 2.5h192q13 0 22.5 9.5t9.5 22.5v160
q0 13 9.5 22.5t22.5 9.5t22.5 -9.5t9.5 -22.5v-160q0 -40 -28 -68t-68 -28zM352 -32h-160q-20 0 -37.5 7.5t-30.5 20.5t-20.5 30.5t-7.5 37.5v160q0 13 9.5 22.5t22.5 9.5t22.5 -9.5t9.5 -22.5v-160q0 -13 9.5 -22.5t22.5 -9.5h160q13 0 22.5 -9.5t9.5 -22.5t-9.5 -22.5
t-22.5 -9.5zM128 512q-9 0 -16 4.5t-11.5 11.5t-4.5 16v160q0 40 28 68t68 28h160q9 0 16 -4.5t11.5 -11.5t4.5 -16q0 -13 -9.5 -22.5t-22.5 -9.5h-160q-13 0 -22.5 -9.5t-9.5 -22.5v-160q0 -6 -2.5 -12t-7 -10.5t-10 -7t-12.5 -2.5zM896 512q-9 0 -16 4.5t-11.5 11.5
t-4.5 16v160q0 13 -9.5 22.5t-22.5 9.5h-192q-9 0 -16.5 4.5t-11.5 11.5t-4 16q0 4 1 8.5t3 8t5 6.5t6.5 5t8 3t8.5 1h192q26 0 48 -13t35 -35t13 -48v-160q0 -13 -9.5 -22.5t-22.5 -9.5z" />
    <glyph glyph-name="uniE60A" unicode="&#xe60a;" 
d="M608 128q-13 0 -22.5 9.5t-9.5 22.5v352q0 13 9.5 22.5t22.5 9.5q9 0 16 -4t11.5 -11.5t4.5 -16.5v-352q0 -6 -2.5 -12t-7 -10.5t-10.5 -7t-12 -2.5zM416 128q-9 0 -16.5 4.5t-11.5 11.5t-4 16v352q0 13 9.5 22.5t22.5 9.5q9 0 16 -4t11.5 -11.5t4.5 -16.5v-352
q0 -9 -4.5 -16t-11.5 -11.5t-16 -4.5zM928 672h-160v64q0 26 -12.5 48t-34.5 35t-48 13h-321q-26 0 -48 -13t-35 -35t-13 -48v-64h-160q-9 0 -16 -4.5t-11.5 -11.5t-4.5 -16q0 -13 9.5 -22.5t22.5 -9.5h832q9 0 16 4.5t11.5 11.5t4.5 16q0 13 -9.5 22.5t-22.5 9.5zM320 736
q0 9 4.5 16t11.5 11.5t16 4.5h321q6 0 12 -2.5t10 -7t6.5 -10t2.5 -12.5v-64h-384v64zM736 -64h-448q-40 0 -68 28t-28 68v480q0 14 9.5 23t22.5 9q9 0 16.5 -4t11.5 -11.5t4 -16.5v-480q0 -13 9.5 -22.5t22.5 -9.5h448q14 0 23 9.5t9 22.5v479q0 13 9.5 22.5t22.5 9.5
q9 0 16.5 -4t11.5 -11.5t4 -16.5v-479q0 -40 -28 -68t-68 -28z" />
    <glyph glyph-name="uniE60B" unicode="&#xe60b;" 
d="M615 -73q-7 0 -13.5 3t-11 7.5t-7 11t-2.5 13.5v512q0 6 2 12t6 10l223 251h-600l223 -251q3 -3 4.5 -6.5t2.5 -7.5t1 -8v-308l55 -44q11 -9 12.5 -23t-7.5 -25t-23 -12.5t-25 7.5l-67 54q-13 10 -13 26v312l-265 297q-15 17 -6 37t32 20h753q10 0 18.5 -5.5t12.5 -14.5
q3 -6 3 -13t-2 -13t-7 -11l-265 -298v-498q0 -15 -10 -25t-24 -10z" />
    <glyph glyph-name="uniE60C" unicode="&#xe60c;" 
d="M353 64q-27 0 -45.5 -18.5t-18.5 -45.5t18.5 -45.5t45.5 -18.5q17 0 31.5 8.5t23.5 23.5t9 32q0 27 -19 45.5t-45 18.5zM801 64q-27 0 -45.5 -18.5t-18.5 -45.5t18.5 -45.5t45 -18.5t45.5 18.5t19 45.5t-19 45.5t-45 18.5zM864 96h-520q-22 0 -42.5 11t-33.5 30t-16 42
l-54 382l-31 179q-2 11 -11 19.5t-19 8.5h-41q-13 0 -22.5 9.5t-9.5 22.5t9.5 22.5t22.5 9.5h41q35 0 62 -24t31 -59l31 -178l54 -384q2 -11 10.5 -19t18.5 -8h520q13 0 22.5 -9.5t9.5 -22.5t-9.5 -22.5t-22.5 -9.5zM384 224q-12 0 -21.5 8.5t-10.5 21.5q0 8 3.5 16
t10.5 12.5t16 5.5l434 32q12 0 21 8t10 19l51 288q1 8 -1.5 16.5t-7.5 13.5q-3 3 -6.5 5t-8.5 2h-554q-13 0 -22.5 9.5t-9.5 22.5t9.5 22.5t22.5 9.5h554q18 0 34.5 -7.5t28.5 -21.5q30 -33 24 -81l-51 -289q-4 -33 -30.5 -57t-61.5 -24l-431 -32h-3z" />
    <glyph glyph-name="uniE60D" unicode="&#xe60d;" 
d="M401 -64q-336 0 -336 162q0 37 34 67.5t84.5 49t111.5 28.5v6q-31 24 -51.5 57t-30 73t-13 74.5t-3.5 76.5q0 99 55 155t153 56h7q97 0 152.5 -56t55.5 -155q0 -42 -3.5 -76.5t-13 -74.5t-30 -73t-51.5 -57v-6q45 -7 85 -19.5t73 -30.5t52.5 -42.5t19.5 -52.5
q0 -20 -6 -38t-20 -37t-40.5 -34t-64 -27.5t-94 -19t-126.5 -6.5zM405 677q-48 0 -80 -16.5t-48 -49t-16 -81.5q0 -39 3 -70t11 -64.5t25.5 -60t43.5 -42.5q4 -3 7.5 -7.5t5.5 -9.5t2 -10v-52q0 -12 -8.5 -21t-20.5 -10q-57 -6 -105 -22t-72 -33t-24 -30q0 -98 272 -98
q91 0 155.5 11.5t98 33.5t33.5 53q0 21 -58.5 48.5t-142.5 36.5q-13 1 -21 10t-8 21v52q0 4 1 8t3 7.5t4.5 6.5t6.5 5q26 16 43.5 42.5t25.5 60t11 64.5t3 70q0 147 -144 147h-7zM899 132q-13 0 -22.5 9.5t-9.5 22.5q0 8 -10 18.5t-29 22.5t-42.5 23t-54 19.5t-61.5 11.5
q-12 2 -20 11t-8 21v67q0 17 14 27q29 18 49 48t28.5 63.5t11.5 58t3 47.5q0 125 -121 133q-8 1 -16 1q-13 0 -22.5 9.5t-9.5 22.5q0 7 2.5 12.5t6.5 10t10 7t13 2.5q93 0 147 -53t54 -145q0 -27 -3.5 -55.5t-13.5 -67.5t-33 -76t-56 -62v-22q53 -10 103.5 -31.5t86 -55
t35.5 -68.5q0 -13 -9.5 -22.5t-22.5 -9.5z" />
    <glyph glyph-name="uniE60E" unicode="&#xe60e;" 
d="M746 219l-30 -35q-2 -1 -3 -3l220 -215l36 34zM824 452q0 -105 -49 -191t-133.5 -134.5t-185.5 -48.5q-105 1 -189.5 52t-131.5 136t-47 186q0 72 29.5 139t79 115.5t117.5 78t142 29.5q99 0 184.5 -50t134.5 -133t49 -179zM454 765q-86 0 -159 -42.5t-115.5 -116
t-42.5 -160.5t42.5 -161t115.5 -116.5t159 -42.5q37 0 73 8.5t67.5 24t59.5 37.5t50 49.5t38 59t24.5 67.5t8.5 74q0 87 -43.5 160.5t-117.5 116t-160 42.5z" />
    <glyph glyph-name="uniE60F" unicode="&#xe60f;" 
d="M420 569v-371l231 186z" />
    <glyph glyph-name="uniE610" unicode="&#xe610;" 
d="M877 404zM758.5 -54.5q9.5 9.5 10 22.5t-7.5 22l-377 376q-12 12 -12 18t12 18l377 376q5 6 7 14t-0.5 16t-8.5 14q-10 9 -23 9.5t-22 -7.5l-418 -419q-7 -7 -8 -18v-6q0 -3 1 -6.5t2.5 -6.5t4.5 -5l418 -419q9 -8 22 -8t22.5 9.5z" />
    <glyph glyph-name="uniE611" unicode="&#xe611;" 
d="M937 81q-2 58 -27.5 110.5t-70.5 90.5v191q0 100 -64 177q-5 6 -10.5 12.5t-11.5 12t-12.5 11t-13 10.5t-13.5 9.5t-14 8.5t-14.5 8t-15.5 7l-14 6q-8 3 -16 5q-8 47 -44 78.5t-85 31.5q-11 0 -21.5 -1.5t-20 -5t-18.5 -8t-17 -10.5t-15 -13t-13 -15.5t-11 -17.5
t-8 -18.5t-4 -20.5q-82 -24 -136 -90q-21 -25 -35 -54t-21.5 -60t-7.5 -63v-191q-44 -38 -70 -90.5t-28 -110.5l-1 -32h99v-1h174q13 -45 49.5 -75.5t83.5 -36.5v-1h25q34 0 65.5 14.5t53.5 40t32 58.5h173v1h100zM515 -2h-7q-27 0 -49.5 13.5t-34.5 36.5h175
q-5 -8 -10 -14.5t-11.5 -12t-13.5 -10t-15 -7.5t-16.5 -4.5t-17.5 -1.5zM777 111v-1h-532v1h-94q16 81 82 131l12 9v222q0 76 49 136.5t124 76.5l25 5v30q0 28 20 47.5t48 19.5t48 -19.5t20 -47.5v-30l25 -5q75 -16 124 -76.5t49 -136.5v-222l12 -9q66 -50 82 -131h-94z" />
    <glyph glyph-name="uniE612" unicode="&#xe612;" 
d="M512 832q-185 0 -316.5 -131.5t-131.5 -316.5t131.5 -316.5t316.5 -131.5t316.5 131.5t131.5 316.5t-131.5 316.5t-316.5 131.5zM512 0q-104 0 -192.5 51.5t-140 140t-51.5 192.5t51.5 192.5t140 140t192.5 51.5t192.5 -51.5t140 -140t51.5 -192.5t-51.5 -192.5
t-140 -140t-192.5 -51.5zM672 384h-160v224q0 9 -4.5 16t-11.5 11.5t-16 4.5q-7 0 -12.5 -2.5t-10 -7t-7 -10.5t-2.5 -12v-256q0 -13 9.5 -22.5t22.5 -9.5h192q7 0 12.5 2.5t10 7t7 10t2.5 12.5q0 13 -9.5 22.5t-22.5 9.5z" />
    <glyph glyph-name="uniE613" unicode="&#xe613;" 
d="M917 170q-8 -9 -21 -9q-7 0 -14 3t-12 8l-358 360l-358 -360q-11 -11 -26 -11q-13 0 -21 9q-6 6 -8 14.5t0.5 17t9.5 15.5l377 379q10 11 25 11h3q7 -1 13.5 -3.5t10.5 -7.5l377 -379q20 -19 7 -41q-3 -4 -5 -6z" />
    <glyph glyph-name="uniE614" unicode="&#xe614;" 
d="M447 -48q-5 0 -10 2q-104 35 -170.5 120t-73.5 191q-1 3 -1 7q0 44 -6 83t-13 62t-16 41.5t-13 23.5t-6 8q-15 16 -6 35q4 9 12.5 14t18.5 5q14 -1 32.5 -3t54.5 -11.5t57 -23.5q15 -10 29 -28t25 -40q13 39 20.5 91t9 94t0 86.5t-3 61.5t-2.5 25q0 4 0.5 8t2 7t3.5 6.5
t4.5 6t5.5 4.5q18 10 35 -2q10 -7 24 -18t50 -41t67.5 -60t67.5 -71.5t59 -78.5q7 52 1 112q-2 22 18 32q3 1 7 2t8 1t7.5 -1t7 -3t6.5 -4q2 -3 6 -7t14 -15.5t20 -25t22.5 -35t23 -45t21 -55t18 -65t11 -75.5t2.5 -86q0 -94 -48 -176t-130 -129q-5 -3 -10 -4t-10 -0.5
t-9.5 3t-8.5 5.5q-17 17 -6 38q2 5 4 9.5t3.5 8.5t3 8.5t2.5 9t1.5 9.5t1 9.5t0.5 8.5q1 48 -44 99.5t-108 95.5q13 -117 -18 -164q-3 -4 -6.5 -6.5t-7.5 -4.5t-8 -3h-7q-3 0 -6 1t-6 2.5t-6 3.5q-32 26 -66 46q-12 6 -15.5 18.5t3 24.5t19 15.5t24.5 -3.5q9 -5 18.5 -11
t19.5 -13q7 63 -12 152q-5 20 11.5 32.5t34.5 2.5q16 -9 36 -21.5t60 -42.5t70 -61.5t54 -75t24 -84.5q78 84 78 198q4 162 -63 285q-3 -42 -14.5 -73.5t-32.5 -46.5q-4 -2 -9 -3.5t-10 -1.5t-9 2q-15 5 -20 20q-19 61 -83 130.5t-138 129.5q11 -271 -69 -388
q-5 -8 -13.5 -11.5t-17.5 -2.5q-20 3 -26 22q-9 30 -25.5 62t-31.5 41q-7 5 -20 9.5t-29 8.5q31 -74 34 -179v-4q0 -91 56 -167.5t145 -105.5q13 -4 19 -16t1 -25q0 -2 -1.5 -4.5t-3 -4.5t-3 -3.5t-3.5 -3t-4.5 -2.5t-4.5 -2t-4.5 -1.5t-5.5 -0.5z" />
    <glyph glyph-name="uniE615" unicode="&#xe615;" 
d="M917 598q-8 9 -21 9q-7 0 -14 -3t-12 -8l-358 -360l-358 360q-11 11 -26 11q-13 0 -21 -9q-10 -9 -9 -23t11 -24l377 -379q10 -11 25 -11h3q7 1 13.5 3.5t10.5 7.5l377 379q5 5 8 11.5t3 12.5t-2 12.5t-7 10.5z" />
    <glyph glyph-name="uniE616" unicode="&#xe616;" 
d="M863 413l-317 2v318q0 13 -9.5 22.5t-22.5 9.5t-22.5 -9.5t-9.5 -22.5v-318l-322 1q-14 0 -23 -9.5t-9.5 -22.5t9 -22.5t22.5 -9.5l323 -1v-319q0 -14 9.5 -23t22.5 -9t22.5 9t9.5 23v319l317 -2q9 0 16.5 4.5t11.5 12t4 15.5q0 14 -9 23t-23 9z" />
    <glyph glyph-name="uniE617" unicode="&#xe617;" 
d="M361 90v469q0 5 -2 8.5t-5 6.5t-6.5 5t-8.5 2q-9 0 -15 -6.5t-6 -15.5v-469q5 -18 21 -21q17 0 21 16q0 3 1 5zM531 90v469q0 4 -1 7t-3 5.5t-4.5 4.5t-6 3.5t-6.5 1.5q-9 0 -15 -6.5t-6 -15.5v-469q0 -9 6 -15t15 -6q17 4 21 21zM147 602q-5 0 -9 -2t-7 -6t-4 -8h-1
v-581q0 -36 25 -61t60 -25h597q36 0 61 25t25 61v576q0 8 -6.5 14.5t-15 6.5t-15 -6.5t-6.5 -14.5v-576q0 -18 -12.5 -30.5t-30.5 -12.5h-597q-11 0 -21 5.5t-15.5 15.5t-5.5 22v576q0 8 -6.5 14.5t-15.5 6.5zM83 708h256l1 1q10 -1 17 6l79 79h148l79 -79q3 -3 7.5 -5
t9.5 -1v-1h1h256q5 0 10 3t8 8t3 11q0 9 -6.5 15t-14.5 6h-246l-79 79q-7 7 -16 6h-1h-171q-10 1 -16 -6l-79 -79h-246q-9 0 -15 -6t-6 -15q0 -4 1 -7t3 -5.5t4.5 -4.5t6 -3.5t6.5 -1.5zM702 90v469q0 9 -6.5 15.5t-15 6.5t-15 -6.5t-6.5 -15.5v-469q0 -9 6.5 -15t14.5 -6
q17 0 21 16q1 3 1 5z" />
    <glyph glyph-name="uniE618" unicode="&#xe618;" 
d="M864 352h-701q-13 0 -22.5 9.5t-9.5 22.5q0 9 4.5 16t12 11.5t15.5 4.5h701q13 0 22.5 -9.5t9.5 -22.5q0 -7 -2.5 -12.5t-7 -10t-10.5 -7t-12 -2.5z" />
    <glyph glyph-name="uniE619" unicode="&#xe619;" 
d="M557 383l266 264q9 9 9 22t-9 23q-6 6 -14.5 8.5t-16.5 0t-15 -8.5l-265 -264l-263 264q-9 9 -22.5 9t-23 -9t-9.5 -22.5t10 -22.5l263 -264l-265 -264q-10 -9 -10 -22.5t9.5 -22.5t22.5 -9q6 0 12 2t11 7l265 264l265 -267q10 -9 23 -9q6 0 12 2.5t11 6.5q9 10 9 23
t-9 23z" />
    <glyph glyph-name="uniE61A" unicode="&#xe61a;" 
d="M440 896l-52 -51l461 -461l-461 -460l52 -51l511 511z" />
    <glyph glyph-name="uniE61B" unicode="&#xe61b;" 
d="M512 832q-146 0 -249 -103t-103 -249q0 -53 34 -127.5t76.5 -136.5t98 -130.5t80 -95.5t40.5 -44q9 -10 23 -10h1q14 0 23 11l109 125q219 268 219 408q0 146 -103 249t-249 103zM512 320q-66 0 -113 47t-47 113t47 113t113 47t113 -47t47 -113t-47 -113t-113 -47z" />
    <glyph glyph-name="uniE61C" unicode="&#xe61c;" 
d="M512 -50q-118 0 -218 58t-158 158t-58 218q0 51 11.5 99.5t33 91.5t51 80.5t67.5 67t80.5 51t91 33t99.5 11.5q118 0 218 -58t158 -158t58 -218q0 -166 -112 -290q-107 -120 -266 -140q-28 -4 -56 -4zM666 487l-132 132q-2 4 -5 6.5t-7 3.5q-2 1 -3.5 1t-3 0.5t-2.5 0.5
h-1v0h-1q-2 0 -4.5 -0.5t-4.5 -1.5q-4 -1 -7 -3.5t-5 -6.5l-132 -132q-7 -7 -6.5 -17t8 -18t17.5 -8t17 7l2 2l90 89v-399v-1v-2q0 -6 3.5 -11t9.5 -8t13 -3q4 0 8 1t7 3.5t5.5 5t4 6t1.5 6.5v402l90 -89l1 -1l1 -1q4 -5 10.5 -6.5t13 0.5t10.5 7q8 8 8.5 18t-6.5 17z" />
    <glyph glyph-name="uniE61D" unicode="&#xe61d;" 
d="M512 -128q139 0 257 68.5t186.5 186.5t68.5 257t-68.5 257t-186.5 186.5t-257 68.5t-257 -68.5t-186.5 -186.5t-68.5 -257t68.5 -257t186.5 -186.5t257 -68.5zM512 800q85 0 162 -33t132.5 -88.5t88.5 -132.5t33 -162q0 -113 -55.5 -209t-151.5 -151.5t-209 -55.5
t-209 55.5t-151.5 151.5t-55.5 209t55.5 209t151.5 151.5t209 55.5zM704 115q-30 50 -81 79.5t-111 29.5t-111 -29.5t-81 -79.5l-82 50q42 71 115 113t159 42t159 -42t115 -113zM767 616q3 -13 -3.5 -24.5t-19.5 -14.5q-29 -7 -57 -21q8 -9 12.5 -20.5t4.5 -23.5
q0 -27 -18.5 -45.5t-45.5 -18.5t-45.5 18.5t-18.5 45.5v3q3 58 82 98q34 17 70 26q13 3 24.5 -3.5t14.5 -19.5zM257 616q2 8 8 14t14 8.5t17 0.5q36 -9 70 -26q21 -11 37.5 -23t30 -32t14.5 -43v-3q0 -27 -18.5 -45.5t-45 -18.5t-45.5 18.5t-19 45.5q0 25 17 44
q-28 14 -57 21q-13 3 -19.5 14.5t-3.5 24.5z" />
    <glyph glyph-name="uniE61E" unicode="&#xe61e;" 
d="M512 813q-117 0 -216.5 -57.5t-157 -157t-57.5 -217t57.5 -216.5t157 -157t216.5 -58t216.5 58t157 157t57.5 216.5t-57.5 217t-157 157t-216.5 57.5zM722 357h-1l-416 1h-3q-6 0 -11 3t-8 8.5t-3 11.5q0 10 6.5 17t15.5 7l419 1h1q6 0 11 -3.5t8 -9t3 -12t-3 -12t-8 -9
t-11 -3.5z" />
    <glyph glyph-name="uniE61F" unicode="&#xe61f;" 
d="M946 384q0 -118 -58 -218t-158 -158t-218 -58q-88 0 -168.5 34.5t-138.5 92.5t-92.5 138.5t-34.5 168.5q0 118 58 218t158 158t218 58q71 0 137 -22t119.5 -62t93.5 -93.5t62 -119.5t22 -137zM664 316q-4 5 -10.5 7t-13 0.5t-10.5 -6.5q-1 0 -1 -1q-1 0 -1 -1l-90 -89
v402q0 9 -8 15.5t-18.5 6.5t-18 -6.5t-7.5 -15.5v-1v-2v-399l-90 89l-2 2q-7 7 -17 7t-17.5 -8t-8 -18t6.5 -17l132 -132q4 -7 12 -10q4 -2 9 -2h1v0h1q4 0 9 2q7 3 12 10l132 132q7 7 6.5 17t-8.5 18z" />
    <glyph glyph-name="uniE620" unicode="&#xe620;" 
d="M512 896q-139 0 -257 -68.5t-186.5 -186.5t-68.5 -257t68.5 -257t186.5 -186.5t257 -68.5t257 68.5t186.5 186.5t68.5 257t-68.5 257t-186.5 186.5t-257 68.5zM576 515q3 58 82 98q34 17 70 26q13 3 24.5 -3.5t14.5 -19.5t-3.5 -24.5t-19.5 -14.5q-6 -1 -12 -3l-10 -4
l-12 -4t-12 -5t-11 -5q4 -5 7 -10t5.5 -10.5t3.5 -11.5t1 -12q0 -27 -18.5 -45.5t-45 -18.5t-45.5 18.5t-19 45.5v3zM257 616q2 8 8 14t14 8.5t17 0.5q36 -9 70 -26q21 -11 37.5 -23t30 -32t14.5 -43v-3q0 -27 -18.5 -45.5t-45 -18.5t-45.5 18.5t-19 45.5q0 25 17 44
q-28 14 -57 21q-13 3 -19.5 14.5t-3.5 24.5zM704 115q-30 50 -81 79.5t-111 29.5t-111 -29.5t-81 -79.5l-82 50q42 71 115 113t159 42t159 -42t115 -113z" />
    <glyph glyph-name="uniE621" unicode="&#xe621;" 
d="M512 -128q139 0 257 68.5t186.5 186.5t68.5 257t-68.5 257t-186.5 186.5t-257 68.5t-257 -68.5t-186.5 -186.5t-68.5 -257t68.5 -257t186.5 -186.5t257 -68.5zM512 800q85 0 162 -33t132.5 -88.5t88.5 -132.5t33 -162q0 -113 -55.5 -209t-151.5 -151.5t-209 -55.5
t-209 55.5t-151.5 151.5t-55.5 209t55.5 209t151.5 151.5t209 55.5zM512 297q173 0 320 85q-11 -134 -103 -226t-217 -92t-217 92t-103 226q47 -27 98.5 -46t108 -29t113.5 -10zM256 544q0 40 18.5 68t45.5 28q13 0 25 -7.5t20.5 -20.5t13.5 -30.5t5 -37.5q0 -26 -8.5 -48
t-23.5 -35t-32 -13q-27 0 -45.5 28t-18.5 68zM640 544q0 26 8.5 48t23.5 35t32 13q13 0 25 -7.5t20.5 -20.5t13.5 -30.5t5 -37.5q0 -26 -8.5 -48t-23.5 -35t-32 -13q-27 0 -45.5 28t-18.5 68z" />
    <glyph glyph-name="uniE622" unicode="&#xe622;" 
d="M512 896q-139 0 -257 -68.5t-186.5 -186.5t-68.5 -257t68.5 -257t186.5 -186.5t257 -68.5t257 68.5t186.5 186.5t68.5 257t-68.5 257t-186.5 186.5t-257 68.5zM704 640q13 0 25 -7.5t20.5 -20.5t13.5 -30.5t5 -37.5q0 -26 -8.5 -48t-23.5 -35t-32 -13q-27 0 -45.5 28
t-18.5 68q0 26 8.5 48t23.5 35t32 13zM320 640q13 0 25 -7.5t20.5 -20.5t13.5 -30.5t5 -37.5q0 -26 -8.5 -48t-23.5 -35t-32 -13q-27 0 -45.5 28t-18.5 68t18.5 68t45.5 28zM512 0q-125 0 -217 92t-103 226q71 -41 152.5 -63t167.5 -22q173 0 320 85q-11 -134 -103 -226
t-217 -92z" />
    <glyph glyph-name="uniE623" unicode="&#xe623;" 
d="M512 -128q139 0 257 68.5t186.5 186.5t68.5 257t-68.5 257t-186.5 186.5t-257 68.5t-257 -68.5t-186.5 -186.5t-68.5 -257t68.5 -257t186.5 -186.5t257 -68.5zM512 800q85 0 162 -33t132.5 -88.5t88.5 -132.5t33 -162q0 -113 -55.5 -209t-151.5 -151.5t-209 -55.5
t-209 55.5t-151.5 151.5t-55.5 209t55.5 209t151.5 151.5t209 55.5zM256 576q0 -27 18.5 -45.5t45.5 -18.5t45.5 18.5t18.5 45.5t-18.5 45.5t-45.5 18.5t-45.5 -18.5t-18.5 -45.5zM640 576q0 -27 18.5 -45.5t45.5 -18.5t45.5 18.5t18.5 45.5t-18.5 45.5t-45.5 18.5
t-45.5 -18.5t-18.5 -45.5zM384 192h256v-64h-256v64z" />
    <glyph glyph-name="uniE624" unicode="&#xe624;" 
d="M512 896q-139 0 -257 -68.5t-186.5 -186.5t-68.5 -257t68.5 -257t186.5 -186.5t257 -68.5t257 68.5t186.5 186.5t68.5 257t-68.5 257t-186.5 186.5t-257 68.5zM640 128h-256v64h256v-64zM704 640q27 0 45.5 -18.5t18.5 -45.5t-18.5 -45.5t-45.5 -18.5t-45.5 18.5
t-18.5 45.5t18.5 45.5t45.5 18.5zM320 640q27 0 45.5 -18.5t18.5 -45.5t-18.5 -45.5t-45.5 -18.5t-45.5 18.5t-18.5 45.5t18.5 45.5t45.5 18.5z" />
    <glyph glyph-name="uniE625" unicode="&#xe625;" 
d="M368 310q0 -10 -4 -19.5t-10.5 -16.5t-16 -11t-20.5 -4q-21 0 -36 15t-15 36q0 14 7 26t18.5 18.5t25.5 6.5q33 0 47 -29q4 -11 4 -22zM955 338.5q0 104.5 -59.5 194t-161.5 141t-222.5 51.5t-223 -51.5t-162 -141t-59.5 -193.5q0 -95 51 -179.5t140 -138.5v-122
q0 -14 13 -20q5 -3 11 -3q3 0 6.5 1t6.5 3l56 37q1 1 3 2l63 42q24 -4 47.5 -6.5t46.5 -2.5q121 0 223 52t161.5 141t59.5 193.5zM293 55q-41 24 -74.5 55t-56.5 67.5t-35.5 77.5t-12.5 84q0 69 31.5 131.5t85 108t127 72.5t154 27t154 -27t126.5 -72.5t84.5 -108
t31.5 -131.5q0 -133 -105 -230q-108 -100 -265 -109q-14 -1 -27 -1q-46 0 -94 10q-2 1 -4.5 1t-4.5 -0.5t-4.5 -1.5t-4.5 -2l-74 -50l-3 -2l-17 -11v92q0 13 -12 20zM571 325q0 -14 -7 -26t-18.5 -19t-25.5 -7q-21 0 -36 15t-15 36.5t14.5 36.5t36.5 15q14 0 25.5 -7
t18.5 -18.5t7 -25.5zM771 324.5q0 -21.5 -15 -36.5t-36 -15t-36 15t-15 37q0 10 4 19.5t11 16.5t16.5 11t19.5 4q21 0 36 -15t15 -36.5z" />
    <glyph glyph-name="uniE626" unicode="&#xe626;" 
d="M766 386h-254v256h-67v-256h-254v-67h254v-253h67v253h254v67z" />
    <glyph glyph-name="uniE627" unicode="&#xe627;" 
d="M888 598q-6 6 -14.5 8t-16.5 -0.5t-14 -9.5l-427 -454l-233 230q-10 9 -23 9t-22 -10q-7 -6 -9 -14t0.5 -16.5t8.5 -14.5l256 -253h1q1 -1 7 -4q0 -1 1 -1.5t2 -1.5q6 -2 12 -2l12 3q1 0 2 1t2 1q5 3 7 5v0l449 479q9 9 9 22.5t-10 22.5z" />
    <glyph glyph-name="uniE628" unicode="&#xe628;" 
d="M663 -171q-9 0 -18 2t-17 7t-13 11q-8 8 -18.5 17.5t-25.5 20.5t-32 18t-32 7q-26 0 -57.5 -21.5t-48.5 -40.5q-19 -20 -48 -20q-7 0 -13 1.5t-12 3.5l-1 1l-125 70l-1 1q-17 11 -23 32t2 40q12 31 12 51q0 55 -39 93.5t-94 38.5h-4h-1q-16 0 -27.5 13t-15.5 35
q-11 57 -11 100q0 41 11 99v1q2 10 6 19t10 15.5t13 9.5t15 3h4q55 0 94 39t39 94q0 23 -12 50q-5 14 -4.5 27t7 25.5t18.5 20.5l1 1l132 72l1 1q6 2 12 3.5t13 1.5q6 0 13 -1.5t13 -4t11.5 -6.5t10.5 -8q7 -8 17.5 -16.5t25 -19t31.5 -17t31 -6.5q25 0 55.5 19.5t48.5 38.5
q9 9 21.5 14t25.5 5q14 0 25 -5h1l128 -71l1 -1q17 -12 23 -33t-3 -40q-11 -30 -11 -50q0 -55 39 -94t93 -39h5q10 0 19.5 -5.5t15.5 -16.5t9 -25q1 -3 1.5 -8t2.5 -16.5t3.5 -23t2.5 -26t1 -26.5q0 -46 -11 -100q-3 -15 -9 -25.5t-15.5 -16.5t-19.5 -6h-5q-54 0 -93 -38.5
t-39 -93.5q0 -25 11 -51q9 -19 3 -40t-23 -32l-1 -1l-130 -72l-1 -1q-12 -4 -24 -4zM664 -126q2 -1 5 -1l125 69q-1 5 -3.5 11t-5.5 16.5t-5.5 24t-2.5 25.5q0 80 55.5 138t134.5 62q10 52 10 90.5t-10 90.5q-39 2 -74 19t-60.5 43.5t-40.5 62.5t-15 75q0 7 1 15t2.5 14.5
t3 13.5t2.5 12l4 10q1 5 2.5 7.5t1.5 4.5l-123 69h-1q-1 0 -2.5 -0.5t-2.5 -0.5q-19 -20 -45 -39q-58 -40 -107 -40q-51 0 -108 41q-9 6 -17.5 13t-15 12.5t-9.5 8.5t-4 5l-5 1h-1l-128 -70q3 -7 6 -15.5t7 -27t4 -34.5q0 -80 -55 -137.5t-134 -62.5q-2 -8 -3.5 -19.5
t-4 -33.5t-2.5 -37q0 -38 10 -91q79 -4 134 -62t55 -138q0 -38 -17 -77l122 -68q2 0 4 1q19 21 46 41q59 43 110 43q52 0 111 -44q28 -21 46 -41zM508 134q-73 0 -125 51.5t-52 124.5q0 48 23.5 89t64.5 64.5t89 23.5q73 0 124.5 -52t51.5 -125q0 -28 -9 -55t-25 -49
t-38 -38t-49 -25t-55 -9zM508 438q-53 0 -91 -37.5t-38 -90.5q0 -34 17.5 -64t47 -47t64.5 -17q53 0 90.5 37.5t37.5 90.5q0 35 -17 64.5t-47 46.5t-64 17zM508 427z" />
    <glyph glyph-name="uniE629" unicode="&#xe629;" 
d="M744 -55v41h187q2 0 4 1t3.5 1.5t2.5 1.5l2 4q1 1 1.5 3t0.5 4v589q0 4 -2 7t-5 5t-7 2h-436v42h436q23 0 39.5 -16.5t16.5 -39.5v-589q0 -23 -16.5 -39.5t-39.5 -16.5h-187zM600 -49v2q0 105 -74.5 179.5t-179.5 74.5t-179.5 -74.5t-74.5 -179.5v-2h-46v2q0 100 61 180
t158 108q-57 24 -92 76.5t-35 114.5q0 28 7.5 55t21 50t32.5 42t42 32.5t50 21t55 7.5q56 0 104 -27.5t76 -75.5t28 -105q0 -12 -1.5 -24.5t-4.5 -24t-7 -23t-9.5 -22t-12.5 -21t-14.5 -19.5t-16.5 -17.5t-18.5 -15.5t-20.5 -13t-22 -11q97 -28 158 -108t61 -180v-2h-46z
M346 595q-44 0 -81.5 -22t-59.5 -59.5t-22 -81.5q0 -67 48 -115t115 -48t115 48t48 115q0 44 -22 81.5t-59.5 59.5t-81.5 22zM660 202v46h219v-46h-219zM583 343v47h296v-47h-296zM583 476v47h296v-47h-296z" />
    <glyph glyph-name="uniE62A" unicode="&#xe62a;" 
d="M227 482q-39 0 -66.5 -27.5t-27.5 -66.5t27.5 -67t66.5 -28q26 0 47.5 13t34.5 34.5t13 47.5q0 15 -5 29.5t-13.5 26t-20.5 20.5t-26 13.5t-30 4.5zM511 482q-39 0 -67 -27.5t-28 -66.5t28 -67t67 -28q26 0 47.5 13t34 34.5t12.5 47.5q0 19 -7.5 36.5t-20 30t-30 20
t-36.5 7.5zM795 482q-39 0 -67 -27.5t-28 -66.5t28 -67t67 -28q25 0 47 13t34.5 34.5t12.5 47.5q0 39 -27.5 66.5t-66.5 27.5z" />
    <glyph glyph-name="uniE62B" unicode="&#xe62b;" 
d="M384 576h512q13 0 22.5 9.5t9.5 22.5t-9.5 22.5t-22.5 9.5h-512q-13 0 -22.5 -9.5t-9.5 -22.5t9.5 -22.5t22.5 -9.5zM896 416h-512q-13 0 -22.5 -9.5t-9.5 -22.5t9.5 -22.5t22.5 -9.5h512q13 0 22.5 9.5t9.5 22.5t-9.5 22.5t-22.5 9.5zM896 192h-512q-13 0 -22.5 -9.5
t-9.5 -22.5t9.5 -22.5t22.5 -9.5h512q13 0 22.5 9.5t9.5 22.5t-9.5 22.5t-22.5 9.5zM192 608zM128 608q0 26 19 45t45 19t45 -19t19 -45t-19 -45t-45 -19t-45 19t-19 45zM192 384zM128 384q0 26 19 45t45 19t45 -19t19 -45t-19 -45t-45 -19t-45 19t-19 45zM192 160zM128 160
q0 26 19 45t45 19t45 -19t19 -45t-19 -45t-45 -19t-45 19t-19 45z" />
    <glyph glyph-name="uniE62C" unicode="&#xe62c;" horiz-adv-x="1025" 
d="M949 464q-5 113 -63 208.5t-155 152.5t-211 59q-86 1 -166 -31.5t-144 -94.5q-59 -58 -94 -134.5t-41 -158.5q-32 -7 -53.5 -33t-21.5 -60v-123q0 -39 27.5 -67t67.5 -28q9 0 15 6.5t6 15.5v258q0 82 32.5 159t91.5 135q57 56 129.5 85.5t150.5 27.5t150 -34t124 -85
t83 -125.5t31 -151.5v0v-269v-1v-28q0 -37 -20 -68t-53 -46l-203 -94v3q0 24 -17.5 41.5t-41.5 17.5h-122q-24 0 -41.5 -17.5t-17.5 -41.5q0 -11 5 -22t12.5 -19t18.5 -12.5t23 -4.5h159q5 0 10 2l232 108q45 21 71.5 62.5t26.5 90.5v10q32 7 53 33t21 59v123q0 33 -21 59
t-54 33zM43 249v123q0 33 31 47v-217q-14 6 -22.5 18.5t-8.5 28.5zM589 -73h-138q-3 0 -5.5 1t-4 2t-3 3t-2.5 4.5t-1 5t1 5t2 4.5l4 2q1 2 3.5 3t5.5 1h122q3 0 6 -1.5t5 -3.5t3.5 -4.5t1.5 -6.5v-15zM981 249q0 -10 -4 -19.5t-11 -16.5t-16 -11v217q31 -14 31 -47v-123z
M828 347q0 1 -1 2v1h28q5 0 9 2t6.5 4.5t4.5 6.5t2 9v73q0 74 -29 142t-78 116.5t-116.5 77.5t-141.5 29q-99 0 -183 -49t-133 -133t-49 -183v-73q0 -6 3 -11t8 -8t11 -3h28l-1 -1v-2q0 -130 92.5 -223t223.5 -93t223.5 93t92.5 223zM190 445q0 88 43 162t117.5 117
t161.5 43t161.5 -43t117.5 -117t43 -162v-52h-129v101q0 8 -4.5 13.5t-11.5 7.5q-15 4 -24 -10l-67 -112h-408v52zM239 347v2l-1 1h372q6 0 11 3t7 8l34 56v-45q0 -9 6.5 -15.5t15.5 -6.5h102l-1 -1v-2q0 -113 -80 -193t-193 -80q-117 0 -198 85q-75 80 -75 188z" />
  </font>
</defs>
</svg>
